Resample mode sony vegas что это
Перейти к содержимому

Resample mode sony vegas что это

  • автор:

whoa there, pardner!

Your request has been blocked due to a network policy.

Try logging in or creating an account here to get back to browsing.

If you’re running a script or application, please register or sign in with your developer credentials here. Additionally make sure your User-Agent is not empty and is something unique and descriptive and try again. if you’re supplying an alternate User-Agent string, try changing back to default as that can sometimes result in a block.

You can read Reddit’s Terms of Service here.

if you think that we’ve incorrectly blocked you or you would like to discuss easier ways to get the data you want, please file a ticket here.

when contacting us, please include your ip address which is: 178.132.108.12 and reddit account

что такое resample на sony vegas pro? и зачем надо отключать?

если про звук, то это передискретизация, то есть увеличение частоты дискретизации (семплирования) для более точной обработки.

checked ✓Ученик (70) 7 лет назад

Остальные ответы

Я не отключаю

checked ✓Ученик (70) 7 лет назад

что это такое?

Если не замедлять или ускорять клипы или из 50Р делать рендер 25Р, то отключать не надо. В остальных случаях необходимо из-за некорректной работы ресемпла, особенно, интерлейсных файлов.
В Сони Вегас ресемпл отключается в одном эвенте, потом, как атрибут, применяется к остальным. В Маджик Вегас в настройках проекта.

Ресемпл это хрень которую надо всегда вырубать, иначе видео будет шлейфить (или размываться).

Похожие вопросы

Ваш новый опыт редактирования видео

Независимо от того, создаете ли вы контент для социальных сетей или для «большого экрана», новая версия VEGAS Pro ꟷ это единственный программный инструмент для редактирования видео, который вам для чего угодно понадобится, ничего другого не нужно! Редактирование любых разновидностей видео- и аудиоматериалов, создание видеокомпозиций и моушн-графики в рамках одной комплексной программной платформы.

Ваш новый опыт редактирования видео

Ваш новый опыт редактирования видео

Resample mode sony vegas что это

Всем привет, столкнулся с проблемой в рендере.
Снимаю видео игры через bandicam, на выходе дает отличное качество с 60fps.
В вегасе манипуляций с видео практически не делаю, могу обрезать начало или конец на сек 10, накладываю только звуковую дорожку, при рендере предлагают 59.940fps но это явно не 60. Видео выходит не такое плавное как оригинал, как с этим бороться? Как выставить параметры чтобы вегас рендерил ровно в 60fps и достиг качества оригинала? А вообще интересует есть ли возможность чтобы видео не сжималось а просто добавлялась дорожка как в MKVtools и на эту манипуляцию времени уходит намного меньше.
Еще бывают тупняки когда фаел больше 3GB, при сворачивании проги и потом возврат в нее начинает висеть мол программа не отвечает, в течении минуты раздупляется.
Заранее благодарен за ответ.
Медиа инфу предоставляю.

General
Format : MPEG-4
Format profile : Base Media
Codec ID : isom (mp41)
File size : 14.8 GiB
Duration : 1h 3mn
Overall bit rate mode : Variable
Overall bit rate : 33.2 Mbps
Writing application : BandiMp4Muxer 1.0

Video
ID : 1
Format : AVC
Format/Info : Advanced Video Codec
Format profile : Main@L4.2
Format settings, CABAC : Yes
Format settings, ReFrames : 1 frame
Codec ID : avc1
Codec ID/Info : Advanced Video Coding
Duration : 1h 3mn
Bit rate : 33.0 Mbps
Width : 1 920 pixels
Height : 1 080 pixels
Display aspect ratio : 16:9
Frame rate mode : Variable
Frame rate : 40.858 fps
Minimum frame rate : 2.857 fps
Maximum frame rate : 60.060 fps
Original frame rate : 60.000 fps
Color space : YUV
Chroma subsampling : 4:2:0
Bit depth : 8 bits
Scan type : Progressive
Bits/(Pixel*Frame) : 0.389
Stream size : 14.7 GiB (99%)
Language : English

Audio
ID : 2
Format : AAC
Format/Info : Advanced Audio Codec
Format profile : LC
Codec ID : 40
Duration : 1h 3mn
Bit rate mode : Variable
Bit rate : 196 Kbps
Maximum bit rate : 284 Kbps
Channel(s) : 2 channels
Channel positions : Front: L R
Sampling rate : 44.1 KHz
Frame rate : 43.066 fps (1024 spf)
Compression mode : Lossy
Stream size : 89.4 MiB (1%)
Language : English

Vegas после рендера

General
Format : MPEG-4
Format profile : Base Media / Version 2
Codec ID : mp42 (mp42/isom)
File size : 10.5 GiB
Duration : 1h 3mn
Overall bit rate mode : Variable
Overall bit rate : 23.6 Mbps

Video
ID : 2
Format : AVC
Format/Info : Advanced Video Codec
Format profile : High@L4.2
Format settings, CABAC : Yes
Format settings, ReFrames : 2 frames
Format settings, GOP : M=2, N=30
Muxing mode : Container profile=High@4.0
Codec ID : avc1
Codec ID/Info : Advanced Video Coding
Duration : 1h 3mn
Bit rate mode : Variable
Bit rate : 23.4 Mbps
Maximum bit rate : 26.0 Mbps
Width : 1 920 pixels
Height : 1 080 pixels
Display aspect ratio : 16:9
Frame rate mode : Constant
Frame rate : 59.940 (60000/1001) fps
Color space : YUV
Chroma subsampling : 4:2:0
Bit depth : 8 bits
Scan type : Progressive
Bits/(Pixel*Frame) : 0.188
Stream size : 10.4 GiB (99%)
Language : English

Audio
ID : 1
Format : AAC
Format/Info : Advanced Audio Codec
Format profile : LC
Codec ID : 40
Duration : 1h 3mn
Bit rate mode : Constant
Bit rate : 128 Kbps
Channel(s) : 2 channels
Channel positions : Front: L R
Sampling rate : 48.0 KHz
Frame rate : 46.875 fps (1024 spf)
Compression mode : Lossy
Stream size : 58.4 MiB (1%)
Language : English

Настройки проекта и рендера

Конфигурация компа и системы

Gigabyte GA-B85-HD3.
Intel Core i7-4770.
Kingston HyperX KHX1600C9D3 2x4Gb.
NVIDIA GeForce GTX 670.
KINGSTON SSD SH103S3120G 120GB, SATA-III
WDC HDD WD15EARS-00MVWB0 2x1500GB, SATA-II

Window 7×64 ultimate
Sony Vegas Pro 13.0 (Build 453) x64

Добавить комментарий

Ваш адрес email не будет опубликован. Обязательные поля помечены *